<?xml version="1.0" standalone="no"?>
<!DOCTYPE svg PUBLIC "-//W3C//DTD SVG 1.1//EN" "http://www.w3.org/Graphics/SVG/1.1/DTD/svg11.dtd" >
<svg xmlns="http://www.w3.org/2000/svg" xmlns:xlink="http://www.w3.org/1999/xlink" version="1.1">
<metadata>
Created by FontForge 20230101 at Sat Jul 15 10:42:53 2023
 By John Smith
Copyright Dave Gandy 2015. All rights reserved.
</metadata>
<defs>
<font id="FontAwesome" horiz-adv-x="1792" >
  <font-face 
    font-family="FontAwesome"
    font-weight="400"
    font-stretch="normal"
    units-per-em="1792"
    panose-1="0 0 0 0 0 0 0 0 0 0"
    ascent="1536"
    descent="-256"
    bbox="-11.667 -234.18 1780.33 1536"
    underline-thickness="0"
    underline-position="0"
    unicode-range="U+0020-F500"
  />
<missing-glyph horiz-adv-x="896" 
d="M224 112h448v1312h-448v-1312zM112 0v1536h672v-1536h-672z" />
    <glyph glyph-name=".notdef" horiz-adv-x="896" 
d="M224 112h448v1312h-448v-1312zM112 0v1536h672v-1536h-672z" />
    <glyph glyph-name=".null" horiz-adv-x="0" 
 />
    <glyph glyph-name="nonmarkingreturn" horiz-adv-x="597" 
 />
    <glyph glyph-name="space" unicode=" " horiz-adv-x="448" 
 />
    <glyph glyph-name="uni00A0" unicode="&#xa0;" horiz-adv-x="448" 
 />
    <glyph glyph-name="dieresis" unicode="&#xa8;" 
 />
    <glyph glyph-name="copyright" unicode="&#xa9;" 
 />
    <glyph glyph-name="registered" unicode="&#xae;" 
 />
    <glyph glyph-name="acute" unicode="&#xb4;" 
 />
    <glyph glyph-name="AE" unicode="&#xc6;" 
 />
    <glyph glyph-name="Oslash" unicode="&#xd8;" 
 />
    <glyph glyph-name="uni2000" unicode="&#x2000;" horiz-adv-x="768" 
 />
    <glyph glyph-name="uni2001" unicode="&#x2001;" horiz-adv-x="1537" 
 />
    <glyph glyph-name="uni2002" unicode="&#x2002;" horiz-adv-x="768" 
 />
    <glyph glyph-name="uni2003" unicode="&#x2003;" horiz-adv-x="1537" 
 />
    <glyph glyph-name="uni2004" unicode="&#x2004;" horiz-adv-x="512" 
 />
    <glyph glyph-name="uni2005" unicode="&#x2005;" horiz-adv-x="384" 
 />
    <glyph glyph-name="uni2006" unicode="&#x2006;" horiz-adv-x="256" 
 />
    <glyph glyph-name="uni2007" unicode="&#x2007;" horiz-adv-x="256" 
 />
    <glyph glyph-name="uni2008" unicode="&#x2008;" horiz-adv-x="192" 
 />
    <glyph glyph-name="uni2009" unicode="&#x2009;" horiz-adv-x="307" 
 />
    <glyph glyph-name="uni200A" unicode="&#x200a;" horiz-adv-x="85" 
 />
    <glyph glyph-name="uni202F" unicode="&#x202f;" horiz-adv-x="307" 
 />
    <glyph glyph-name="uni205F" unicode="&#x205f;" horiz-adv-x="384" 
 />
    <glyph glyph-name="trademark" unicode="&#x2122;" 
 />
    <glyph glyph-name="infinity" unicode="&#x221e;" 
 />
    <glyph glyph-name="notequal" unicode="&#x2260;" 
 />
    <glyph glyph-name="uni25FC" unicode="&#x25fc;" horiz-adv-x="500" 
d="M0 0z" />
    <glyph glyph-name="_446" unicode="&#xf1db;" horiz-adv-x="1536" 
d="M768 1406q209 0 385.5 -103t279.5 -279.5t103 -385.5q0 -29 -2 -59q-56 54 -127 89q-5 114 -50 218q-51 119 -136.5 204.5t-204 136.5t-248.5 51t-248.5 -51t-204 -136.5t-136.5 -204t-51 -248.5t51 -248.5t136.5 -204t204.5 -136.5q105 -45 220 -50q35 -70 89 -127
q-31 -2 -61 -2q-209 0 -385.5 103t-279.5 279.5t-103 385.5t103 385.5t279.5 279.5t385.5 103zM1111 520h150v-225h225v-150h-225v-225h-150v225h-225v150h225v225z" />
    <glyph glyph-name="_623" unicode="&#xf298;" 
 />
    <glyph glyph-name="_624" unicode="&#xf299;" 
 />
    <glyph glyph-name="_625" unicode="&#xf29a;" 
 />
    <glyph glyph-name="_626" unicode="&#xf29b;" 
 />
    <glyph glyph-name="_627" unicode="&#xf29c;" 
 />
    <glyph glyph-name="_628" unicode="&#xf29d;" 
 />
    <glyph glyph-name="_629" unicode="&#xf29e;" 
 />
    <glyph glyph-name="lessequal" unicode="&#xf500;" 
 />
    <glyph glyph-name="uniF006" unicode="&#xf006;" 
d="M884.334 1483q43.0479 0 77.1953 -32.3838q22.6191 -21.4502 35.3584 -51.6416l-1.75684 3.83789l207.27 -418.827l461.955 -67.5479q37.2646 -5.4668 65.4189 -24.2012q20.1328 -13.3975 35.3457 -38.1924t15.2129 -53.0654v-8.20801l-1.89746 -7.98438
q-11.7959 -49.6094 -49.5039 -83.9355l1.65723 1.55566l-334.394 -324.892l79.8662 -459.64l-0.387695 2.04102q3.54883 -17.3555 2.87598 -35.7041q-0.396484 -43.124 -22.6475 -73.8799q-13.9512 -19.2842 -38.792 -31.5869t-49.7041 -12.3027h-0.78125
q-39.4404 0.878906 -73.167 19.8086l1.55371 -0.845703l-412.539 218.033l-412.538 -218.033l1.51074 0.820312q-32.7588 -18.3555 -70.2646 -20.3096l-1.82031 -0.0957031h-1.82129q-24.7539 0 -49.0166 12.1133q-24.2617 12.1143 -38.3262 30.999
q-23.8955 32.0879 -23.8955 76.4961l1.53516 20.5361l0.0166016 5.34277l80.9072 465.625l-334.445 325.517l1.20508 -1.14648q-39.582 36.7324 -46.5938 90.2734l-0.592773 4.52734v4.56445q0 27.3867 15.3379 53.0537q15.3369 25.666 35.251 38.5635
q24.46 15.8418 61.9678 23.251l1.71094 0.339844l463.654 67.7969l207.272 419.12l-0.904297 -1.90039q12.8652 28.1094 33.8965 48.5488q34.5322 33.5576 77.8135 33.5576zM884.338 1311.05l-225.15 -455.272l-505.704 -73.9443l365.854 -356.089l-87.2236 -501.973
l450.357 238.021l450.479 -238.084l-87.3496 502.695l366.596 356.175l-502.706 73.5088z" />
    <glyph glyph-name="uniF005" unicode="&#xf005;" 
d="M884.333 1484q43.0488 0 77.1963 -32.3838q22.6191 -21.4502 35.3574 -51.6416l-1.75684 3.83789l207.271 -418.827l461.954 -67.5479q37.2656 -5.4668 65.4199 -24.2012q20.1328 -13.3975 35.3447 -38.1924q15.2129 -24.7959 15.2139 -53.0654v-8.20801
l-1.89746 -7.98438q-11.7969 -49.6084 -49.5039 -83.9355l1.65625 1.55566l-334.394 -324.892l79.8672 -459.639l-0.387695 2.04102q3.54883 -17.3555 2.87598 -35.7041q-0.397461 -43.123 -22.6475 -73.8799q-13.9512 -19.2842 -38.792 -31.5869
q-24.8428 -12.3027 -49.7041 -12.3027q-40.2227 0.878906 -73.9492 19.8086l1.55469 -0.845703l-412.54 218.032l-412.537 -218.032l1.51074 0.820312q-32.7598 -18.3545 -70.2646 -20.3096l-1.82031 -0.0957031h-1.82129q-24.7539 0 -49.0176 12.1133
q-24.2617 12.1143 -38.3252 30.999q-23.8955 32.0879 -23.8955 76.4961l1.53516 20.5352l0.0166016 5.34375l80.9072 465.625l-334.445 325.517l1.20508 -1.14648q-39.582 36.7324 -46.5938 90.2734l-0.592773 4.52734v4.56445q0 27.3867 15.3379 53.0537
q15.3369 25.666 35.251 38.5635q24.46 15.8428 61.9678 23.251l1.71094 0.339844l463.654 67.7969l207.272 419.12l-0.904297 -1.90039q12.8643 28.1084 33.8965 48.5488q34.5322 33.5576 77.8135 33.5576z" />
  </font>
</defs>
</svg>
